Allemagne – Australie En Direct BeinSport 1 HD 2017 | Министр связи обещает операторам сравни... | David Tennant

Billions (2016) S03E09 (1080p AMZN WEB DL x265 HEVC 10bit AAC 5 1 Vyndros) torrent download

seeders: 115
leechers: 243
updated:
Added ago by Vyndros ***** in TV
Torrent Downloaded 10 times.
Info Hash: FED04944E9F0DEDC3A0A2AC874E50C8AADF4AF11


Torrent Files

Billions (2016) S03E09 (1080p AMZN WEB-DL x265 HEVC 10bit AAC 5 1 Vyndros) (Size: 704.4 MB)
  Billions (2016) S03E09 (1080p AMZN WEB-DL x265 HEVC 10bit AAC 5 1 Vyndros) 704.4 MB

Torrent Description









Media Information

Code:

General
Format : Matroska
Format version : Version 4 / Version 2
File size : 704 MiB
Duration : 51 min 49 s
Overall bit rate : 1 900 kb/s
Encoded date : UTC 2018-05-21 11:48:12
Writing application : mkvmerge v20.0.0 ('I Am The Sun') 64-bit
Writing library : libebml v1.3.5 + libmatroska v1.4.8
Writing frontend : StaxRip v1.7.0.6

Video
ID : 1
Format : HEVC
Format/Info : High Efficiency Video Coding
Format profile : Main [email protected]@Main
Codec ID : V_MPEGH/ISO/HEVC
Duration : 51 min 49 s
Bit rate : 1 449 kb/s
Width : 1 920 pixels
Height : 1 080 pixels
Display aspect ratio : 16:9
Frame rate mode : Constant
Frame rate : 23.976 (24000/1001) FPS
Color space : YUV
Chroma subsampling : 4:2:0
Bit depth : 10 bits
Bits/(Pixel*Frame) : 0.029
Stream size : 537 MiB (76%)
Writing library : x265 2.7+346-69aafa6d70ad:[Windows][GCC 7.3.0][64 bit] 10bit
Encoding settings : cpuid=1111039 / frame-threads=3 / numa-pools=12 / wpp / no-pmode / no-pme / no-psnr / ssim / log-level=2 / input-csp=1 / input-res=1920x1080 / interlace=0 / total-frames=74544 / level-idc=0 / high-tier=1 / uhd-bd=0 / ref=3 / no-allow-non-conformance / no-repeat-headers / annexb / no-aud / no-hrd / info / hash=0 / no-temporal-layers / open-gop / min-keyint=23 / keyint=250 / gop-lookahead=0 / bframes=8 / b-adapt=2 / b-pyramid / bframe-bias=0 / rc-lookahead=50 / lookahead-slices=6 / scenecut=40 / radl=0 / no-intra-refresh / ctu=64 / min-cu-size=8 / no-rect / no-amp / max-tu-size=32 / tu-inter-depth=1 / tu-intra-depth=1 / limit-tu=0 / rdoq-level=0 / dynamic-rd=0.00 / no-ssim-rd / signhide / no-tskip / nr-intra=0 / nr-inter=0 / no-constrained-intra / no-strong-intra-smoothing / max-merge=3 / limit-refs=3 / no-limit-modes / me=3 / subme=3 / merange=57 / temporal-mvp / weightp / no-weightb / no-analyze-src-pics / deblock=0:0 / sao / no-sao-non-deblock / rd=3 / no-early-skip / no-rskip / no-fast-intra / no-tskip-fast / no-cu-lossless / no-b-intra / no-splitrd-skip / rdpenalty=0 / psy-rd=2.00 / psy-rdoq=0.00 / no-rd-refine / no-lossless / cbqpoffs=0 / crqpoffs=0 / rc=crf / crf=20.0 / qcomp=0.60 / qpstep=4 / stats-write=0 / stats-read=0 / ipratio=1.40 / pbratio=1.30 / aq-mode=3 / aq-strength=0.80 / cutree / zone-count=0 / no-strict-cbr / qg-size=32 / no-rc-grain / qpmax=69 / qpmin=0 / no-const-vbv / sar=0 / overscan=0 / videoformat=5 / range=0 / colorprim=2 / transfer=2 / colormatrix=2 / chromaloc=0 / display-window=0 / max-cll=0,0 / min-luma=0 / max-luma=1023 / log2-max-poc-lsb=8 / vui-timing-info / vui-hrd-info / slices=1 / no-opt-qp-pps / no-opt-ref-list-length-pps / no-multi-pass-opt-rps / scenecut-bias=0.05 / no-opt-cu-delta-qp / no-aq-motion / no-hdr / no-hdr-opt / no-dhdr10-opt / no-idr-recovery-sei / analysis-reuse-level=5 / scale-factor=0 / refine-intra=0 / refine-inter=0 / refine-mv=0 / no-limit-sao / ctu-info=0 / no-lowpass-dct / refine-mv-type=0 / copy-pic=1 / max-ausize-factor=1.0 / no-dynamic-refine / no-single-sei
Default : Yes
Forced : No

Audio
ID : 2
Format : AAC
Format/Info : Advanced Audio Codec
Format profile : LC
Codec ID : A_AAC
Duration : 51 min 49 s
Bit rate : 449 kb/s
Channel(s) : 6 channels
Channel positions : Front: L C R, Side: L R, LFE
Sampling rate : 48.0 kHz
Frame rate : 46.875 FPS (1024 spf)
Compression mode : Lossy
Stream size : 166 MiB (24%)
Language : English
Default : Yes
Forced : Yes

Subtitle #1
ID : 3
Format : UTF-8
Codec ID : S_TEXT/UTF8
Codec ID/Info : UTF-8 Plain Text
Duration : 51 min 38 s
Bit rate : 90 b/s
Count of elements : 1126
Stream size : 34.3 KiB (0%)
Language : English
Default : No
Forced : No

Subtitle #2
ID : 4
Format : UTF-8
Codec ID : S_TEXT/UTF8
Codec ID/Info : UTF-8 Plain Text
Duration : 51 min 38 s
Bit rate : 95 b/s
Count of elements : 1198
Stream size : 36.2 KiB (0%)
Language : English
Default : No
Forced : No

Menu
00:00:00.000 : en:Studio Logo
00:00:04.000 : en:Previously On
00:01:08.000 : en:Title Sequence
00:01:25.000 : en:Chuck and Jock go hunting, Bobby tries to make a deal
00:05:36.000 : en:Kate prepares for Lugo's case and Chuck guides her
00:07:34.000 : en:Bill loses his dollar and get angry
00:11:47.000 : en:Bobby goes to meet and convince Grigor
00:14:44.000 : en:Bobby becomes unhappy due to Taylor
00:16:30.000 : en:Chuck decides to take action
00:18:56.000 : en:Grigor and Bobby continue their conversation at Bobby's place
00:22:57.000 : en:Wags explains Taylor about Bobby
00:24:46.000 : en:Kate meets Bryan at the bar
00:26:16.000 : en:Bobby asks a favor from Todd
00:27:46.000 : en:Bryan joins the FBI
00:30:18.000 : en:Taylor finds it difficult to understand Bobby's strategy
00:31:25.000 : en:Grigor finally accepts the deal
00:34:55.000 : en:Bill loses his cool and fights with Ben
00:37:12.000 : en:Bill gets back his dollar
00:38:36.000 : en:Jock politely declines Chuck's request
00:41:23.000 : en:Bobby and Wendy discuss about her charity
00:42:28.000 : en:Chuck becomes serious at Lonnie regarding a case
00:46:14.000 : en:Bobby and Grigor finally close the deal
00:51:02.000 : en:End Credits



Source Information

Code:

Release:
Amazon WEB-DL



Related Torrents

torrent name size age seed leech
268.5 MB 1 minute 204 71
397.9 MB 2 minutes 117 266
327.0 MB 2 minutes 756 38
360.8 MB 2 minutes 733 374
453.3 MB 4 minutes 629 10

Sharing Widget


Download torrent
704.4 MB
seeders:1214
leechers:386
Billions (2016) S03E09 (1080p AMZN WEB-DL x265 HEVC 10bit AAC 5 1 Vyndros)



To share this torrent use the code below and insert it into comments, status messages, forum posts or your signature.

Torrent: Billions (2016) S03E09 (1080p AMZN WEB-DL x265 HEVC 10bit AAC 5 1 Vyndros)

Comments

Latest Searches