Parenthood | The 100 S05E12 VOSTFR HDTV | Nanoui (PC)

18+ How To Talk To Girls At Parties 2017 Movies 720p HDRip x264 5 1 with Sample ☻rDX☻ torrent download

seeders: 621
leechers: 293
updated:
Added ago by nehalpuja ***** in Movies
Torrent Downloaded 10 times.
Info Hash: E311C4A548F49BB58C102DDAF2FCD6886703BBC6


Torrent Files

18+ How To Talk To Girls At Parties 2017 Movies 720p HDRip x264 5 1 with Sample ☻rDX☻ (Size: 963.7 MB)
  18+ How To Talk To Girls At Parties 2017 Movies 720p HDRip x264 5 1 with Sample ☻rDX☻ 963.7 MB

Torrent Description



18+ How To Talk To Girls At Parties 2017 Movies 720p HDRip x264 5.1 with Sample ☻rDX☻
===============================================================================================

SCREEN SHOTS:



or

http://iphonehosting.eu/2018/5/a/rpm/1.html

File size : 957 MiB
Duration : 1 h 42 min
Overall bit rate : 1 303 kb/s
Movie name : 18+ How To Talk To Girls At Parties 2017 Movies 720p HDRip x264 5.1 ☻rDX☻

Video
ID : 2
Format : AVC
Format/Info : Advanced Video Codec
Format profile : [email protected]
Format settings, CABAC : Yes
Format settings, ReFrames : 4 frames
Codec ID : V_MPEG4/ISO/AVC
Duration : 1 h 42 min
Bit rate : 919 kb/s
Width : 1 280 pixels
Height : 688 pixels
Display aspect ratio : 1.85:1
Frame rate mode : Constant
Frame rate : 23.976 (24000/1001) FPS
Color space : YUV
Chroma subsampling : 4:2:0
Bit depth : 8 bits
Scan type : Progressive
Bits/(Pixel*Frame) : 0.044
Stream size : 656 MiB (69%)
Title : ☻rDX☻
Writing library : x264

Audio
ID : 1
Format : AC-3
Format/Info : Audio Coding 3
Mode extension : CM (complete main)
Format settings, Endianness : Big
Codec ID : A_AC3
Duration : 1 h 42 min
Bit rate mode : Constant
Bit rate : 384 kb/s
Channel(s) : 6 channels
Channel positions : Front: L C R, Side: L R, LFE
Sampling rate : 48.0 kHz
Frame rate : 31.250 FPS (1536 spf)
Bit depth : 16 bits
Compression mode : Lossy
Delay relative to video : -21 ms
Stream size : 282 MiB (29%)
Title : ☻rDX☻
Default : Yes
Forced : No



IMDB : http://www.imdb.com/title/tt3859310



Related Torrents

torrent name size age seed leech
496.6 MB 5 seconds 216 404
Studio_12 exe
Posted by   Guest  in  Apps
2.6 MB 5 seconds 261 189
1.6 GB 5 seconds 669 132
238.0 MB 2 minutes 418 482
30.4 MB 2 minutes 53 223

Sharing Widget


Download torrent
963.7 MB
seeders:1214
leechers:386
18+ How To Talk To Girls At Parties 2017 Movies 720p HDRip x264 5 1 with Sample ☻rDX☻



To share this torrent use the code below and insert it into comments, status messages, forum posts or your signature.

Torrent: 18+ How To Talk To Girls At Parties 2017 Movies 720p HDRip x264 5 1 with Sample ☻rDX☻

Comments

Latest Searches